เส้นทางดาว Record of Youth (พากย์ไทย 4 แผ่นจบ) 2 ภาษา 2020

เส้นทางดาว Record of Youth (พากย์ไทย 4 แผ่นจบ) 2 ภาษา 2020

เรื่องราวการตามหาความฝันของหนุ่มสาวในวงการโมเดลลิ่ง และ แฟชั่นบันเทิง ท่ามกลางเปลือกนอกที่สวยงาม พวกเขาต้องต่อสู้กับความไม่มั่นใจ

  • ราคา 100.00.-

จำนวนสินค้า

แชร์สินค้านี้
  • facebook
  • twitter
  • google
seriesdvd2008 ราคาถูก สกรีนให้ทุกแผ่นสวยงาม

จำหน่าย DVD D2D V2D ราคาถูกแค่ 25 บาท สกรีนให้ทุกแผ่นสวยงาม ไม่เหมือนใคร และไม่มีใครทำในราคานี้

เข้าชมร้านค้า

รายละเอียด




ซีรี่ย์เกาหลี: Record of Youth
ชื่อภาษาไทย: เส้นทางดาว
ประเภท: Family, Melodrama, Youth
นักแสดง: Park Bo Gum, Park So Dam, Byun Woo Suk, Kwon Soo Hyun
จำนวนตอน: 16
เขียนบทโดย: Ha Myung Hee
ผู้กำกับ: Ahn Gil Ho
ออกอากาศทางสถานีโทรทัศน์: Netflix
เริ่มออกอากาศ: -
เวลาออกอากาศ: ทุกจันทร์ & วันอังคาร เวลา 21:00 น.
นักแสดง:
Park Bo Gum as Sa Hye Joon (26)
Im Jae Ha as teen Hye Joon
Park So Dam as Ahn Jung Ha (26)
Byun Woo Suk as Won Hae Hyo (26)
Noh Young Min as teen Hae Hyo
Kwon Soo Hyun as Kim Jin Woo (26) (Hye Joon & Hae Hyo's friend)
People around Hye Joon
Ha Hee Ra as Han Ae Sook (50) (Hye Joon's mother)
Han Jin Hee as Sa Min Ki (71) (Hye Joon's paternal grandfather)
Park Soo Young as Sa Young Nam (53) (Hye Joon's father)
Lee Jae Won as Sa Kyung Joon (27) (Hye Joon's older brother)
Shin Dong Mi as Lee Min Jae (39) (Hye Joon's manager)
Lee Chang Hoon as Lee Tae Soo (Hye Joon's agency representative)
People around Jung Ha
Park Se Hyun as Choi Soo Bin (22)
Jo Ji Seung as Jin Joo
Yang So Min as hair salon director
Park Mi Hyun as Jung Ha's mother
People around Hae Hyo
Shin Ae Ra as Kim Yi Young (52) (Hae Hyo's mother)
Seo Sang Won as Won Tae Kyung (54) (Hae Hyo's father)
Jo Yoo Jung as Won Hae Na (24) (Hae Hyo's younger sister)
People around Jin Woo
Jung Min Sung as Kim Jang Man (51) (Jin Woo's father)
Park Sung Yun as Lee Kyung Mi (49) (Jin Woo's mother)
Jang Yi Jung (as Kim Jin Ri (21) (Jin Woo's younger sister)
Im Ki Hong as Yang Moo Jin
Others
Lee Seung Joon as Charlie Jung
Kim Gun Woo as Park Do Ha (model - Hye Joon's rival)
Sul In Ah as Jung Ji Ah (Hye Joon's ex-girlfriend)
Son Chang Min as Ahn Jung Ha's father
Park Mi Hyun as Ahn Jung Ha's mother
Bae Yoon Kyung as reporter
Special guest appearances
Kim Hye Yoon as Lee Bo Ra (make-up artist) (ep. 1)
Lee Hae Woon as PD Kim (ep. 1, 3)
Seo Hyun Jin as Lee Hyun Soo (top actress) (ep. 7)
Park Seo Joon as Song Min Soo (ep. 9)
Kang Han Na as herself (OVN Drama Awards host) (ep. 9)
Lee Sung Kyung as Jin Seo Woo (ep. 12-13)
Hye Ri as Lee Hae Ji (top star) (ep. 13)
Sysopsis: เรื่องราวการตามหาความฝันของหนุ่มสาวในวงการโมเดลลิ่ง และ แฟชั่นบันเทิง ท่ามกลางเปลือกนอกที่สวยงาม พวกเขาต้องต่อสู้กับความไม่มั่นใจ ความโดดเดี่ยว และต่างต้องความพยายามที่จะพิสูจน์ตัวตน ต้องดิ้นรนแข่งขันเพื่อให้บรรลุตามความฝัน และก้าวไปสู่การเป็นซูเปอร์โมเดลที่ประสบความสำเร็จ ก้าวไปโด่งดังในโลกบันเทิง และเป็นที่จดจำของผู้คน มาติดตามชมกันได้ในซีรี่ย์เกาหลี Record of Youth เส้นทางดาว
Credit: franky

General
Unique ID                      : 176120708385697553243219569560899252604 (0x847F9D571FFA75C228A0B06D3D6F717C)
Complete name                  : E:Record of Youth เส้นทางดาวRecord.of.Youth.2020.S01E09.1080p.NF.WEB-DL.DDP2.0.x264.mkv
Format                         : Matroska
Format version                 : Version 4
File size                      : 3.30 GiB
Duration                       : 1 h 18 min
Overall bit rate mode          : Variable
Overall bit rate               : 6 020 kb/s
Encoded date                   : UTC 2021-02-02 17:15:21
Writing application            : mkvmerge v19.0.0 ('Brave Captain') 64-bit
Writing library                : libebml v1.3.5 + libmatroska v1.4.8

Video
ID                             : 1
Format                         : AVC
Format/Info                    : Advanced Video Codec
Format profile                 : Main@L4
Format settings                : CABAC / 3 Ref Frames
Format settings, CABAC         : Yes
Format settings, Reference fra : 3 frames
Codec ID                       : V_MPEG4/ISO/AVC
Duration                       : 1 h 17 min
Bit rate mode                  : Variable
Bit rate                       : 5 800 kb/s
Maximum bit rate               : 8 700 kb/s
Width                          : 1 920 pixels
Height                         : 1 080 pixels
Display aspect ratio           : 16:9
Frame rate mode                : Constant
Frame rate                     : 23.976 (24000/1001) FPS
Color space                    : YUV
Chroma subsampling             : 4:2:0
Bit depth                      : 8 bits
Scan type                      : Progressive
Bits/(Pixel*Frame)             : 0.117
Stream size                    : 3.15 GiB (95%)
Writing library                : x264 core 148 r2722 1b0121b
Encoding settings              : cabac=1 / ref=3 / deblock=1:0:0 / analyse=0x1:0x111 / me=umh / subme=10 / psy=1 / psy_rd=1.00:0.00 / mixed_ref=1 / me_range=24 / chroma_me=1 / trellis=2 / 8x8dct=0 / cqm=0 / deadzone=21,11 / fast_pskip=1 / chroma_qp_offset=-2 / threads=8 / lookahead_threads=1 / sliced_threads=0 / nr=0 / decimate=1 / interlaced=0 / bluray_compat=0 / stitchable=1 / constrained_intra=0 / bframes=2 / b_pyramid=0 / b_adapt=2 / b_bias=0 / direct=3 / weightb=1 / open_gop=0 / weightp=2 / keyint=250 / keyint_min=23 / scenecut=0 / intra_refresh=0 / rc_lookahead=48 / rc=2pass / mbtree=1 / bitrate=5800 / ratetol=1.0 / qcomp=0.50 / qpmin=6 / qpmax=51 / qpstep=4 / cplxblur=20.0 / qblur=0.5 / vbv_maxrate=8700 / vbv_bufsize=11600 / nal_hrd=vbr / filler=0 / ip_ratio=1.40 / aq=1:1.00
Default                        : Yes
Forced                         : No

Audio #1
ID                             : 2
Format                         : E-AC-3
Format/Info                    : Enhanced AC-3
Commercial name                : Dolby Digital Plus
Codec ID                       : A_EAC3
Duration                       : 1 h 18 min
Bit rate mode                  : Constant
Bit rate                       : 128 kb/s
Channel(s)                     : 2 channels
Channel layout                 : L R
Sampling rate                  : 48.0 kHz
Frame rate                     : 31.250 FPS (1536 SPF)
Compression mode               : Lossy
Stream size                    : 71.9 MiB (2%)
Language                       : Thai
Service kind                   : Complete Main
Default                        : Yes
Forced                         : No

Audio #2
ID                             : 3
Format                         : E-AC-3
Format/Info                    : Enhanced AC-3
Commercial name                : Dolby Digital Plus
Codec ID                       : A_EAC3
Duration                       : 1 h 17 min
Bit rate mode                  : Constant
Bit rate                       : 128 kb/s
Channel(s)                     : 2 channels
Channel layout                 : L R
Sampling rate                  : 48.0 kHz
Frame rate                     : 31.250 FPS (1536 SPF)
Compression mode               : Lossy
Stream size                    : 71.3 MiB (2%)
Language                       : Korean
Service kind                   : Complete Main
Default                        : No
Forced                         : No

Text #1
ID                             : 4
Format                         : UTF-8
Codec ID                       : S_TEXT/UTF8
Codec ID/Info                  : UTF-8 Plain Text
Duration                       : 1 h 17 min
Bit rate                       : 188 b/s
Count of elements              : 1206
Stream size                    : 107 KiB (0%)
Language                       : Thai
Default                        : Yes
Forced                         : No

Text #2
ID                             : 5
Format                         : PGS
Muxing mode                    : zlib
Codec ID                       : S_HDMV/PGS
Codec ID/Info                  : Picture based subtitle format used on BDs/HD-DVDs
Duration                       : 1 h 17 min
Bit rate                       : 34.1 kb/s
Count of elements              : 2412
Stream size                    : 18.9 MiB (1%)
Language                       : Thai
Default                        : No
Forced                         : No
 

เส้นทางดาว Record of Youth (พากย์ไทย 4 แผ่นจบ) 2 ภาษา 2020
เส้นทางดาว Record of Youth (พากย์ไทย 4 แผ่นจบ) 2 ภาษา 2020
100.00.-